(navigation image)
Home Audio Books & Poetry | Community Audio | Computers & Technology | Grateful Dead | Live Music Archive | Music, Arts & Culture | Netlabels | News & Public Affairs | Non-English Audio | Podcasts | Radio Programs | Spirituality & Religion | The Shady Trees
Search: Advanced Search
Anonymous User (login or join us)
Upload

Listen to audio

item image
Run time: 1:!9:42

Stream (help[help])

VBR M3U (Hi-Fi)
64Kbps M3U (Lo-Fi)

Play / Download (help[help])

(36.5 M)64Kbps MP3 ZIP
(113.2 M)VBR ZIP

Ogg Vorbis

Lossless zip


All Files: HTTPS Torrent (2/0)

Resources

Bookmark

Camper Van BeethovenCamper Van Beethoven Live at Dayton OH on 1986-10-25 (October 25, 1986)

something has gone horribly wrong 8-p
Prefer flash? · Embed · Questions/Feedback?


Collection: CamperVanBeethoven
Band/Artist: Camper Van Beethoven
Date: October 25, 1986 (check for other copies)
Venue: Dayton OH
Location: Dayton Ohio USA

Source: Stereo mic > Sony D6 > MCAS
Lineage: MCAS > Protools > Audacity 1.2.6a > xACT 1.64 > FLAC
Taped by: Andrew Norton
Transferred by: TAS aka morst
Keywords: master analog cassette; audience recording; Andrew Norton Collection


Description

01. (I Was So) Wasted
02. The History Of Utah
03. Take The Skinheads Bowling
04. I Love Her All The Time
05. Mao
06. Heart
07. Down And Out
08. I'm Not Like Everybody Else
09. banter - Soviet Spies Swim Upstream Disguised As Trout
10. Hoe Yourself Down
11. We Love You
12. Turtlehead
13. Ambiguity Song
14. Abundance
15. Kung Fu Fighting - The Day Lassie Went To The Moon
16. (We're A) Bad Trip
17. medley - Processional - Club Med Sucks
18. Six More Miles
19. encore break - encore intro
20. SP Medley - No Kruggerrands For David
21. Where The Hell Is Bill?
22. Sad Lover's Waltz

Notes

notes: master cassette swap at 2:25 of t17
This was the first CVB show after two-weeks of CVB opening for REM

Source:
Sony stereo ECM-939LT microphone > Sony WM-D6c > Teac CRC-90 high bias cassettes
(No stand, just sitting on the soundboard.)

Live concert sound and recording by Andrew Norton

Transfer (March 2009 by TAS aka morst):
Master SBD cassettes (Courtesy Andrew Norton) > Sony WM-D6c > Sony SBM-1 (Oade mod) > Audiomedia III PCI card > Powermac G3/266 > Protools 4.1.1 @44.1kHz > AIFF > Audacity 1.2.6a > xACT 1.64 > FLAC level 8

SHNTOOL:
length expanded size cdr WAVE problems fmt ratio filename
0:35.04 6183452 B --- -- ---xx CVB1986-10-25t01.flac
2:58.39 31490972 B --- -- ---xx CVB1986-10-25t02.flac
2:55.24 30926492 B --- -- ---xx CVB1986-10-25t03.flac
2:25.65 25730924 B --- -- ---xx CVB1986-10-25t04.flac
2:34.70 27330284 B --- -- ---xx CVB1986-10-25t05.flac
3:59.08 42178460 B --- -- ---xx CVB1986-10-25t06.flac
1:26.36 15255116 B --- -- ---xx CVB1986-10-25t07.flac
3:24.31 36058556 B --- -- ---xx CVB1986-10-25t08.flac
1:42.33 18070460 B --- -- ---xx CVB1986-10-25t09.flac
2:13.74 23635292 B --- -- ---xx CVB1986-10-25t10.flac
2:47.56 29590556 B --- -- ---xx CVB1986-10-25t11.flac
1:29.01 15701996 B --- -- ---xx CVB1986-10-25t12.flac
4:17.38 45424220 B --- -- ---xx CVB1986-10-25t13.flac
1:19.64 14086172 B --- -- ---xx CVB1986-10-25t14.flac
7:33.67 80066828 B --- -- ---xx CVB1986-10-25t15.flac
2:28.19 26151932 B --- -- ---xx CVB1986-10-25t16.flac
15:42.63 166317020 B --- -- ---xx CVB1986-10-25t17.flac
3:52.47 41035388 B --- -- ---xx CVB1986-10-25t18.flac
1:55.10 20309564 B --- -- ---xx CVB1986-10-25t19.flac
4:27.31 47171756 B --- -- ---xx CVB1986-10-25t20.flac
4:44.45 50203484 B --- -- ---xx CVB1986-10-25t21.flac
4:46.67 50608028 B --- -- ---xx CVB1986-10-25t22.flac
79:41.67 843526952 B 0.6247 (22 files)

Individual Files

Whole Item FormatSize
CVB1986-10-25_64kb.m3u 64Kbps M3U Stream
CVB1986-10-25_64kb_mp3.zip 64Kbps MP3 ZIP 36.5 MB
CVB1986-10-25_vbr.m3u VBR M3U Stream
CVB1986-10-25_vbr_mp3.zip VBR ZIP 113.2 MB
Audio Files Flac Ogg Vorbis 64Kbps MP3 VBR MP3
(I Was So) Wasted 4.0 MB
475.7 KB
274.4 KB
910.4 KB
The History Of Utah 18.9 MB
2.4 MB
1.4 MB
4.2 MB
Take The Skinheads Bowling 18.9 MB
2.4 MB
1.3 MB
4.2 MB
I Love Her All The Time 15.9 MB
2.0 MB
1.1 MB
3.6 MB
Mao Reminisces About His Days In Southern China 15.7 MB
2.1 MB
1.2 MB
3.7 MB
Heart 24.6 MB
3.2 MB
1.8 MB
5.7 MB
Down And Out 9.8 MB
1.1 MB
676.2 KB
2.2 MB
I'm Not Like Everybody Else 22.4 MB
2.7 MB
1.6 MB
5.0 MB
banter - Soviet spies swim upstream disguised as trout 9.5 MB
1.3 MB
801.1 KB
2.3 MB
Hoe Yourself Down 14.1 MB
1.8 MB
1.0 MB
3.2 MB
We Love You 18.4 MB
2.2 MB
1.3 MB
4.2 MB
Turtlehead 9.6 MB
1.2 MB
696.0 KB
2.2 MB
Ambiguity Song 27.8 MB
3.4 MB
2.0 MB
6.2 MB
Abundance 9.0 MB
1.0 MB
624.4 KB
2.0 MB
Kung Fu Fighting - The Day Lassie Went To The Moon 49.0 MB
5.8 MB
3.5 MB
10.9 MB
(We're A) Bad Trip 16.6 MB
1.9 MB
1.1 MB
3.6 MB
medley - Processional - Club Med Sucks 99.7 MB
11.8 MB
7.2 MB
22.1 MB
Six More Miles 23.1 MB
3.0 MB
1.8 MB
5.2 MB
encore break - encore intro 10.6 MB
1.6 MB
900.1 KB
2.6 MB
SP Medley - No Kruggerrands For David 27.8 MB
3.4 MB
2.0 MB
6.1 MB
Where The Hell Is Bill? 28.5 MB
3.6 MB
2.2 MB
6.5 MB
Sad Lover's Waltz 28.6 MB
3.7 MB
2.2 MB
6.4 MB
Image Files JPEG
scan of cassette jcards 141.1 KB
Information FormatSize
CVB1986-10-25-flac.ffp Flac FingerPrint 1.2 KB
CVB1986-10-25.ffp Flac FingerPrint 1.2 KB
CVB1986-10-25.md5 Checksums 1.2 KB
CVB1986-10-25-flac.md5 Checksums 1.2 KB
CVB1986-10-25_files.xml Metadata [file]
CVB1986-10-25_meta.xml Metadata 6.7 KB
CVB1986-10-25_reviews.xml Metadata 994.0 B
Other Files Archive BitTorrent Text
CVB1986-10-25_archive.torrent 45.8 KB
informative textfile 5.3 KB

Write a review
Downloaded 1,299 times
Reviews
Average Rating: 5.00 out of 5 stars5.00 out of 5 stars5.00 out of 5 stars5.00 out of 5 stars5.00 out of 5 stars

Reviewer: wrogn - 5.00 out of 5 stars5.00 out of 5 stars5.00 out of 5 stars5.00 out of 5 stars5.00 out of 5 stars - April 22, 2009
Subject: This has to be one of the best.
The tape flip occurs exactly in the wrong place, but the band sounds like they're having a real good time (having survived the REM tour), & the performance is excellent. Some outstandingly hilarious comments, & musical nods to Neil Young, Black Sabbath, & even Lynyrd Skynyrd make up for the few missing seconds of the 'jam' into "Processional"... Last night, with a couple beers in my belly, I decided that this is perhaps the best all-around CVB performance/recording I've yet heard. Everything great about CVB is vividly displayed here.